CDRInfo Forum CDRInfo Forum

Forums  Register  Login  My Profile  Inbox  Address Book  My Subscription  My Forums 

Photo Gallery  Member List  Search  Calendars  FAQ  Ticket List  Log Out

making my own cue sheets for 2 sections   Logged in as: Guest
Viewers: 261 You can click here to see Today's Posts | Most Active Topics | Posts Since Last Visit
  Printable Version
All Forums >> [Optical Storage Software] >> CD/DVD Authoring >> making my own cue sheets for 2 sections Page: [1]
Login
Message << Older Topic   Newer Topic >>
making my own cue sheets for 2 sections - 8/1/2003 3:33:51 PM   
daajrex

 

Posts: 2
Joined: 8/1/2003
From: Belgium
Status: offline
I'm making my own .cue sheets to burn cds.
Now I have 2 big mp3 files, I want to split them up, but in between the 5 tracks of file 1 and the 7 tracks of file 2, I want a two-second pause.
How do I need to put that in the cuesheet ?
Sofar, I only get the whole cd with 0-second gaps.
Post #: 1
RE: making my own cue sheets for 2 sections - 8/1/2003 11:16:19 PM   
Matthew

 

Posts: 943
Joined: 1/2/2002
From: United Kingdom
Status: offline
Before the INDEX 01 entry where you want the gap, add
PREGAP 00:02:00

(but after the TRACK nn entry)

(in reply to daajrex)
Post #: 2
RE: making my own cue sheets for 2 sections - 8/2/2003 1:22:27 AM   
daajrex

 

Posts: 2
Joined: 8/1/2003
From: Belgium
Status: offline
Great, that works ! Thanks Matthew.

For those who might be interested, here is how I did it :

FILE "file1.mp3" MP3
TRACK 01 AUDIO
INDEX 01 00:00:00
TRACK 02 AUDIO
INDEX 01 02:00:00
TRACK 03 AUDIO
INDEX 01 04:00:00
FILE "file2.mp3" MP3
TRACK 04 AUDIO
PREGAP 00:02:00
INDEX 00 00:00:00
INDEX 01 00:00:00
TRACK 05 AUDIO
INDEX 01 01:30:00
TRACK 06 AUDIO
INDEX 01 03:00:00

(in reply to daajrex)
Post #: 3
Page:   [1]
All Forums >> [Optical Storage Software] >> CD/DVD Authoring >> making my own cue sheets for 2 sections Page: [1]
Jump to:





New Messages No New Messages
Hot Topic w/ New Messages Hot Topic w/o New Messages
Locked w/ New Messages Locked w/o New Messages
 Post New Thread
 Reply to Message
 Post New Poll
 Submit Vote
 Delete My Own Post
 Delete My Own Thread
 Rate Posts




Forum Software © ASPPlayground.NET Advanced Edition 2.4.5 ANSI

0.032