CDRInfo Forum CDRInfo Forum

Forums  Register  Login  My Profile  Inbox  Address Book  My Subscription  My Forums 

Photo Gallery  Member List  Search  Calendars  FAQ  Ticket List  Log Out

Curious CD-DA rip... Need burning-tips...   Logged in as: Guest
Viewers: 1120 You can click here to see Today's Posts | Most Active Topics | Posts Since Last Visit
  Printable Version
All Forums >> [Optical Storage Software] >> Audio >> Curious CD-DA rip... Need burning-tips... Page: [1]
Login
Message << Older Topic   Newer Topic >>
Curious CD-DA rip... Need burning-tips... - 7/13/2003 5:34:11 PM   
Bishamon

 

Posts: 2
Joined: 7/13/2003
From: Norway
Status: offline
I have an album ready to burn:

1x WMA file for the entire album
1x .cue file with proper track-list etc.

I just can't find any programs that will burn the darn thing (I have tried the latest Nero, BlindWrite and Alcohol 120%). Any tips?
Post #: 1
RE: Curious CD-DA rip... Need burning-tips... - 7/13/2003 6:12:09 PM   
MP3Mogul


Posts: 5743
Joined: 4/11/2002
From: Retired Moderator
Status: offline
Well, since you stated it's a WMA file, why not use Windows Media since that's the file type it is.


_____________________________



LG GSA H22L Firm 1.02
Samsung SH-203N Firm SB01
LiteOn SOHD-16P9S Firm FS0D

(in reply to Bishamon)
Post #: 2
RE: Curious CD-DA rip... Need burning-tips... - 7/13/2003 6:47:01 PM   
Bishamon

 

Posts: 2
Joined: 7/13/2003
From: Norway
Status: offline
quote:
Originally posted by MP3Mogul

Well, since you stated it's a WMA file, why not use Windows Media since that's the file type it is.



Well, duh! WMP can't process .cue files. I'm trying to recreate the CD as a 15-track disc, not a 1-track disc...
quote:
This is how the .cue looks:
TITLE "World Wide Funk"
PERFORMER "Expansion Union"
FILE "Expansion Union - World Wide Funk.wma" WMA
TRACK 01 AUDIO
TITLE "Gets Mines"
PERFORMER "Expansion Union"
INDEX 01 00:00:00
TRACK 02 AUDIO
TITLE "World Wide Funk"
PERFORMER "Expansion Union"
INDEX 01 01:50:22
TRACK 03 AUDIO
TITLE "Forktung"
PERFORMER "Expansion Union"
INDEX 01 09:02:05
...


(in reply to Bishamon)
Post #: 3
RE: Curious CD-DA rip... Need burning-tips... - 7/13/2003 6:53:17 PM   
sp


Posts: 1371
Joined: 3/30/2003
From: Falkland Islands
Status: offline
As stated by Mp3Mogul, you need:

1. a program for WMA --> WAV converson, and
2. a program for burning .CUE files.

Use EAC for the second task.
I don't know how to transform WMA to WAV.
Windows Media Player is able to play them. This means that the codecs for doing the conversion are on your system already.
Out of my hat, I would say to use a full dublex audio card to re-record digitally on hard disc. But this way you will certainly have the inter song gaps distorted.

I hope there is a conversion somewhere on the web. Just do a Google search...


_____________________________

WM # CI

(in reply to Bishamon)
Post #: 4
RE: Curious CD-DA rip... Need burning-tips... - 7/13/2003 6:59:05 PM   
MP3Mogul


Posts: 5743
Joined: 4/11/2002
From: Retired Moderator
Status: offline
Why not just re-rip the CD with EAC?


_____________________________



LG GSA H22L Firm 1.02
Samsung SH-203N Firm SB01
LiteOn SOHD-16P9S Firm FS0D

(in reply to Bishamon)
Post #: 5
RE: Curious CD-DA rip... Need burning-tips... - 7/13/2003 7:21:55 PM   
sp


Posts: 1371
Joined: 3/30/2003
From: Falkland Islands
Status: offline
http://www.cdrinfo.com/Sections/News/Details.asp?RelatedID=3498

So you can use Nero to burn the songs as one on a rewritable and re-rip for geting the BIN file in the way you want.


_____________________________

WM # CI

(in reply to Bishamon)
Post #: 6
RE: Curious CD-DA rip... Need burning-tips... - 7/15/2003 5:28:42 PM   
Matthew

 

Posts: 943
Joined: 1/2/2002
From: United Kingdom
Status: offline
Can Nero handle the cue if the WMA plugin is installed (if the cue references the WMA)

Thats the WMA for NERO, not the Nero for Windows Media player one
http://ahead.de/en/download/nero-plugins.html

(in reply to Bishamon)
Post #: 7
RE: Curious CD-DA rip... Need burning-tips... - 7/15/2003 6:24:41 PM   
MP3Mogul


Posts: 5743
Joined: 4/11/2002
From: Retired Moderator
Status: offline
yes


_____________________________



LG GSA H22L Firm 1.02
Samsung SH-203N Firm SB01
LiteOn SOHD-16P9S Firm FS0D

(in reply to Bishamon)
Post #: 8
Page:   [1]
All Forums >> [Optical Storage Software] >> Audio >> Curious CD-DA rip... Need burning-tips... Page: [1]
Jump to:





New Messages No New Messages
Hot Topic w/ New Messages Hot Topic w/o New Messages
Locked w/ New Messages Locked w/o New Messages
 Post New Thread
 Reply to Message
 Post New Poll
 Submit Vote
 Delete My Own Post
 Delete My Own Thread
 Rate Posts




Forum Software © ASPPlayground.NET Advanced Edition 2.4.5 ANSI

0.047