Problem burning CD Audio (Full Version)

All Forums >> [Optical Storage Software] >> Audio



Message


jarstail -> Problem burning CD Audio (3/26/2006 4:56:45 AM)

Hi, i use CDRWin 4.0c with my LG GSA 4167B to burn mp3+cuesheet, all its correct but when i go to hear the CD its sound a "sssssssssssssssssssssssss" continously in any cd player. Why??. Thanks.




SithTracy -> RE: Problem burning CD Audio (3/26/2006 8:16:41 AM)

What speed are you burning at?  Can you produce the text output of the cue sheet?  Have you tried burning the disc cue sheet with Nero or something else?  CDRWIN v4.0c is just a few days old.  Would not surprise me if it is broken.  Check their FTP site (get FileZilla - Open FTP Client) and pay close attention to the dates.   Golden Hawk has the tendancy to post a new version of the same code to fix bugs they find after the initial release and not inform anyone on their site.




jarstail -> RE: Problem burning CD Audio (3/26/2006 3:09:08 PM)

I burn it at 48x but i try to slow velocity and its the same problem
This is the cuesheet:

PERFORMER "Lady Tom"
TITLE "Hardstyle Queen III"
FILE "Lady Tom - Hardstyle Queen III.mp3" MP3
TRACK 01 AUDIO
  TITLE intro
  PERFORMER "lady tom"
  INDEX 01 00:00:00
TRACK 02 AUDIO
  TITLE tecktonik
  PERFORMER "lady tom"
  INDEX 01 01:05:24
TRACK 03 AUDIO
  TITLE "hey mama"
  PERFORMER kat
  INDEX 01 06:35:71
TRACK 04 AUDIO
  TITLE "the rebel"
  PERFORMER "franky sl"
  INDEX 01 11:17:30
TRACK 05 AUDIO
  TITLE "wauze style"
  PERFORMER "marcello moreno"
  INDEX 01 15:17:37
TRACK 06 AUDIO
  TITLE "painted black"
  PERFORMER "departement h"
  INDEX 01 19:54:66
TRACK 07 AUDIO
  TITLE devastating
  PERFORMER "hardline vs mark nails"
  INDEX 01 23:41:72
TRACK 08 AUDIO
  TITLE "****ed up"
  PERFORMER "dj norman vs d'carrera"
  INDEX 01 28:28:65
TRACK 09 AUDIO
  TITLE revenge
  PERFORMER "sisma dj"
  INDEX 01 31:40:48
TRACK 10 AUDIO
  TITLE bad
  PERFORMER "puenktchen & anton"
  INDEX 01 36:02:31
TRACK 11 AUDIO
  TITLE "shoot at me (lady tom rmx)"
  PERFORMER "dj timothy"
  INDEX 01 43:07:60
TRACK 12 AUDIO
  TITLE jam
  PERFORMER "lady tom"
  INDEX 01 47:32:15
TRACK 13 AUDIO
  TITLE "disco drive"
  PERFORMER "lady tom"
  INDEX 01 50:50:62
TRACK 14 AUDIO
  TITLE "time of passion"
  PERFORMER "lady tom"
  INDEX 01 53:56:15
TRACK 15 AUDIO
  TITLE "dark europe"
  PERFORMER "lady tom"
  INDEX 01 59:14:55




SithTracy -> RE: Problem burning CD Audio (3/26/2006 8:24:49 PM)

First of all, back 'er down to 16x or 24x burning speed.




Antonio -> RE: Problem burning CD Audio (3/27/2006 12:16:56 AM)

A slower speed might fix things. If not then try with a different burning application such as Nero Burning Rom.




jarstail -> RE: Problem burning CD Audio (3/27/2006 7:16:14 AM)

I tryed some burn velocity 8x 16x 32x...anda nothing works, nero to this function its horrible, whats is the probleeeeem!!!! And other software to burn mp3 + cue??




SithTracy -> RE: Problem burning CD Audio (3/27/2006 9:07:45 AM)

You may want to access the Golden Hawk FTP site and download an older version of the software or contact them for support.




Page: [1]

Valid CSS!




Forum Software © ASPPlayground.NET Advanced Edition 2.4.5 ANSI
1.464844E-02